Parajelenségek - A megjelöltek (Paranormal Activity - The Marked Ones) 2014 TC.CUSTOM.BDRip.XviD.HUN-SLN
dragon moovie
Az oldal tartalma részben megtekinthető vendégként , a teljes tartalomhoz való hozzáféréshez regisztráció és belépés szükséges !

Kérünk valós email címet adj meg , aktiváló linket tartalmazó üzenetet kapsz a megadott címre !


Online Filmek - Sorozatok - Letöltések
 
HomePortalCalendarGy.I.K.KeresésTaglistaCsoportokRegisztrációBelépés

Online Filmek - Sorozatok - Letöltések

 Parajelenségek - A megjelöltek (Paranormal Activity - The Marked Ones) 2014 TC.CUSTOM.BDRip.XviD.HUN-SLN

 
Előző téma megtekintése Következő téma megtekintése Go down 
SzerzőÜzenet
Vendég
Vendég



TémanyitásTárgy: Parajelenségek - A megjelöltek (Paranormal Activity - The Marked Ones) 2014 TC.CUSTOM.BDRip.XviD.HUN-SLN   1/10/2015, 11:44 pm





INFORMÁCIÓ:



Paranormal Activity: The Marked Ones

színes, magyarul beszélő, amerikai horror, 84 perc
2014



rendező: Christopher Landon
forgatókönyvíró: Christopher Landon
operatőr: Gonzalo Amat
producer: Oren Peli
vágó: Gregory Plotkin


Szereplők:

Molly Ephraim (Ali)
Richard Cabral (Arturo)
Crystal Santos (boszorkány)
Andrew Jacobs (Jesse)
Jessica Tyler Brown (Kristi)
Chloe Csengery (Katie)



TARTALOM:



Miután Jesse szomszédja meghal,halála után számos zavaró és megmagyarázhatatlan dolgok történnek Jessevel. Jesset nem hagyják nyugodni a zavaró dolgok így nyomozni kezd,hogy kíderítse a dolgok valódi okát,de eközben ő nem számít rá,hogy ő lett a gonosz fő célpontja akit a gonosz megjelölt.



TECHNIKAI INFO:




General
Complete name                            : Paranormal.Activity.The.Marked.Ones.2014.TC.CUSTOM.BDRip.XviD.HUN-SLN\sln-patmo.avi
Format                                   : AVI
Format/Info                              : Audio Video Interleave
File size                                : 1.06 GiB
Duration                                 : 1h 24mn
Overall bit rate                         : 1 808 Kbps
Writing application                      : VirtualDubMod 1.5.10.3 | www.virtualdub-fr.org || (build 2550/release)
Writing library                          : VirtualDubMod build 2550/release

Video
ID                                       : 0
Format                                   : MPEG-4 Visual
Format profile                           : Advanced Simple@L5
Format settings, BVOP                    : 1
Format settings, QPel                    : No
Format settings, GMC                     : No warppoints
Format settings, Matrix                  : Default (MPEG)
Codec ID                                 : XVID
Codec ID/Hint                            : XviD
Duration                                 : 1h 24mn
Bit rate                                 : 1 415 Kbps
Width                                    : 720 pixels
Height                                   : 400 pixels
Display aspect ratio                     : 16:9
Frame rate                               : 23.976 fps
Color space                              : YUV
Chroma subsampling                       : 4:2:0
Bit depth                                : 8 bits
Scan type                                : Progressive
Compression mode                         : Lossy
Bits/(Pixel*Frame)                       : 0.205
Stream size                              : 852 MiB (78%)
Writing library                          : XviD 1.3.0.dev55

Audio
ID                                       : 1
Format                                   : AC-3
Format/Info                              : Audio Coding 3
Mode extension                           : CM (complete main)
Format settings, Endianness              : Big
Codec ID                                 : 2000
Duration                                 : 1h 24mn
Bit rate mode                            : Constant
Bit rate                                 : 384 Kbps
Channel(s)                               : 2 channels
Channel positions                        : Front: L R
Sampling rate                            : 48.0 KHz
Bit depth                                : 16 bits
Compression mode                         : Lossy
Stream size                              : 231 MiB (21%)
Alignment                                : Split accross interleaves
Interleave, duration                     : 42 ms (1.00 video frame)
Interleave, preload duration             : 500 ms




LETÖLTÉS:


A code tag használata a fórumban tiltott !
http://fileparadox.com/mi40bh3k1tge/sln-patmo.part1.rar
http://fileparadox.com/7gcc54q4a24j/sln-patmo.part2.rar
!
Vissza az elejére Go down
 Előző téma megtekintése Következő téma megtekintése Vissza az elejére 
1 / 1 oldal

Permissions in this forum:Nem válaszolhatsz egy témára ebben a fórumban.
dragon moovie :: Film letöltések :: Horror-