X-Men - Az eljövendő múlt napjai (X-Men - Days of Future Past) 2014 HC.CAM.XviD.MP3-RARBG
dragon moovie
Az oldal tartalma részben megtekinthető vendégként , a teljes tartalomhoz való hozzáféréshez regisztráció és belépés szükséges !

Kérünk valós email címet adj meg , aktiváló linket tartalmazó üzenetet kapsz a megadott címre !


Online Filmek - Sorozatok - Letöltések
 
HomePortalCalendarGy.I.K.KeresésTaglistaCsoportokRegisztrációBelépés

Online Filmek - Sorozatok - Letöltések

 X-Men - Az eljövendő múlt napjai (X-Men - Days of Future Past) 2014 HC.CAM.XviD.MP3-RARBG

 
Előző téma megtekintése Következő téma megtekintése Go down 
SzerzőÜzenet
Vendég
Vendég



TémanyitásTárgy: X-Men - Az eljövendő múlt napjai (X-Men - Days of Future Past) 2014 HC.CAM.XviD.MP3-RARBG   5/26/2014, 9:33 pm











INFORMÁCIÓ:


X-Men - Az eljövendő múlt napjai
(X-Men: Days of Future Past)

színes, angolul beszélő, amerikai fantasztikus akciófilm, 131 perc, 2014


rendező: Bryan Singer
forgatókönyvíró: Simon Kinberg, Matthew Vaughn, John Byrne, Chris Claremont
zeneszerző: John Ottman
operatőr: Newton Thomas Sigel, John Ottman
producer: Simon Kinberg, Hutch Parker, Lauren Shuler Donner, Bryan Singer
executive producer: Stan Lee

szereplő(k):
Hugh Jackman (Logan / Wolverine)
Michael Fassbender (Erik Lehnsherr / Magneto)
Patrick Stewart (Professor Charles Xavier)
James McAvoy (Charles Xavier)
Ian McKellen (Erik Lehnsherr / Magneto)
Jennifer Lawrence (Raven / Mystique)
Evan Peters (Pietro Maximoff / Quicksilver)
Ellen Page (Kitty Pryde / Shadowcat)
Nicholas Hoult (Hank McCoy / Beast)
Shawn Ashmore (Bobby Drake / Iceman)
Lucas Till (Alex Summers / Havok)
Daniel Cudmore (Piotr Rasputin / Colossus)
Booboo Stewart (James Proudstar / Warpath)
Omar Sy (Bishop)
Bingbing Fan (Clarice Ferguson / Blink)
Anna Paquin (Marie / Rogue)
Peter Dinklage (Bolivar Trask)
Halle Berry (Ororo Munroe / Storm)



TARTALOM:



A mutánsok köztünk élnek. Ez így volt a múltban is, és így lesz a jövőben is. Legfeljebb nem ebben a sorrendben. Az alternatív jövőt, a mutánsok és emberek közti háború újabb fejezetét bemutató filmben az X-Men-mozik mindkét generációja játszik: a több, egymást keresztező idősíkon bonyolódó történetben Xaiver professzor tanítványainak nemcsak az emberekkel és az emberekben örök ellenséget látó mutánsokkal kell megküzdeniük - immár robotokat is bevetnek ellenük. A sok mutánsnak és a sok harcnak egyetlen célja van: meg kell akadályozni egy a jövőben készülő katasztrófát. De erre csak egyféleképpen van lehetőség: meg kell változtatni a múltat.



TECHNIKAI INFO:



Video
ID                                       : 0
Format                                   : MPEG-4 Visual
Format profile                           : Simple@L5
Format settings, BVOP                    : No
Format settings, QPel                    : No
Format settings, GMC                     : No warppoints
Format settings, Matrix                  : Default (H.263)
Codec ID                                 : XVID
Codec ID/Hint                            : XviD
Duration                                 : 1h 48mn
Bit rate                                 : 1 118 Kbps
Width                                    : 640 pixels
Height                                   : 288 pixels
Display aspect ratio                     : 2.222
Frame rate                               : 29.970 fps
Color space                              : YUV
Chroma subsampling                       : 4:2:0
Bit depth                                : 8 bits
Scan type                                : Progressive
Compression mode                         : Lossy
Bits/(Pixel*Frame)                       : 0.202
Stream size                              : 864 MiB (84%)
Writing library                          : Lavc55.61.100

Audio
ID                                       : 1
Format                                   : MPEG Audio
Format version                           : Version 1
Format profile                           : Layer 3
Mode                                     : Joint stereo
Mode extension                           : MS Stereo
Codec ID                                 : 55
Codec ID/Hint                            : MP3
Duration                                 : 1h 48mn
Bit rate mode                            : Constant
Bit rate                                 : 192 Kbps
Channel(s)                               : 2 channels
Sampling rate                            : 44.1 KHz
Compression mode                         : Lossy
Stream size                              : 148 MiB (15%)
Alignment                                : Aligned on interleaves
Interleave, duration                     : 26 ms (0.78 video frame)
Interleave, preload duration             : 522 ms




LETÖLTÉS:



http://www.uploadable.ch/file/S4JwFuBGyy9w
http://www.uploadable.ch/file/UqXCpFceXJxU
Vissza az elejére Go down
 Előző téma megtekintése Következő téma megtekintése Vissza az elejére 
1 / 1 oldal

Permissions in this forum:Nem válaszolhatsz egy témára ebben a fórumban.
dragon moovie :: Film letöltések :: Idegen nyelvű,feliratra váró-